[Login] or [Signup]
Login
Username:
Password:
[Signup]
[Recover Account]


Poll


You must be logged in to view polls



Torrent Details For " Deewane Do - Pakistani Telefilm 2016 - HDTVRip 720p  x264 AAC { TaRa }.mkv"

 Deewane Do - Pakistani Telefilm 2016 - HDTVRip 720p  x264 AAC { TaRa }.mkv

Download this torrent | Magnet Download
Health:
Seeds: 0
Leechers: 0
Completed:
Last Checked: 06-12-2018 19:09:18
External Torrent
Update Stats
Download Magnet


Poster
No poster


Watch-Free-HD     Download

Details
Name: Deewane Do - Pakistani Telefilm 2016 - HDTVRip 720p  x264 AAC { TaRa }.mkv
Description:

Quote:

   Deewane Do - Pakistani Telefilm 2016 - HDTVRip 720p  x264 AAC { TaRa }.mkv


===================================================================
General
Complete name               : Deewane Do - Pakistani Telefilm 2016 - HDTVRip 720p  x264 AAC { TaRa }.mkv
Format                      : Matroska
Format version              : Version 4 / Version 2
File size                   : 515 MiB
Duration                    : 1 h 20 min
Overall bit rate mode       : Variable
Overall bit rate            : 894 kb/s
===================================================================
Video
ID                          : 1
Format                      : AVC
Format/Info                 : Advanced Video Codec
Format profile              : [email protected]
Format settings, CABAC      : Yes
Format settings, ReFrames   : 3 frames
Codec ID                    : V_MPEG4/ISO/AVC
Duration                    : 1 h 20 min
Bit rate mode               : Variable
Bit rate                    : 794 kb/s
Maximum bit rate            : 40.0 Mb/s
Width                       : 1 280 pixels
Height                      : 536 pixels
Display aspect ratio        : 2.40:1
Frame rate mode             : Constant
Frame rate                  : 25.000 FPS
Color space                 : YUV
Chroma subsampling          : 4:2:0
Bit depth                   : 8 bits
Scan type                   : Progressive
Bits/(Pixel*Frame)          : 0.046
Stream size                 : 457 MiB (89%)
Title                       : .....::::: TaRa :::::.....
Language                    : Urdu
Default                     : Yes
Forced                      : No
===================================================================
Audio
ID                          : 2
Format                      : AAC
Format/Info                 : Advanced Audio Codec
Format profile              : LC
Codec ID                    : A_AAC
Duration                    : 1 h 20 min
Bit rate                    : 96.0 kb/s
Channel(s)                  : 2 channels
Channel positions           : Front: L R
Sampling rate               : 44.1 kHz
Frame rate                  : 43.066 FPS (1024 spf)
Compression mode            : Lossy
Stream size                 : 56.3 MiB (11%)
Title                       : .....::::: TaRa :::::.....
Language                    : Urdu
Default                     : Yes
Forced                      : No
===================================================================














Category:TV > Pakistani
Lang:Urdu
Total Size:515.04 MB
Info Hash:d37fdf4625e1e273cfa3349956363ae1a22b9f6c
Added By:SkTaRa
Date Added:11-04-2017 13:32:43
Views:1,719
Hits:220

Download Torrent

Ratings:Not Yet Rated (Log in to rate it)


Tracker:
udp://tracker.ccc.de:80/announce

This Torrent also has backup trackers
URLSeedersLeechersCompleted
http://tracker.dler.org:6969/announce000
http://ipv4.tracker.harry.lu:80/announce010


File List: 


Comments

<< Previous      Next >>
1 - 1

[Report] Posted: 12-06-2017 at 12:53:48
usmankpt



Uploaded: 0.00 B
Downloaded: 0.00 B
Ratio: ---

thanks bro :love  :love  :love  :love

1 - 1
<< Previous      Next >>


Powered by 10 Hamsters v2-svn -|- Page Generated In 1.611885 secs.
-|- RSS FEED
Theme By: Nikkbu